osu file format v14

[General]
AudioFilename: miiro.mp3
AudioLeadIn: 1500
PreviewTime: 59543
Countdown: 0
SampleSet: Soft
StackLeniency: 0.7
Mode: 0
LetterboxInBreaks: 0
WidescreenStoryboard: 0

[Editor]
DistanceSpacing: 1
BeatDivisor: 2
GridSize: 4
TimelineZoom: 2.5

[Metadata]
Title:MIIRO
TitleUnicode:海色
Artist:AKINO from bless4
ArtistUnicode:AKINO from bless4
Creator:Sakaue Nachi
Version:Normal
Source:艦隊これくしょん -艦これ-
Tags:みいろ TV Size opening kantai collection kancolle moecho crystal -_e_n_j_u_- enju
BeatmapID:699630
BeatmapSetID:312042

[Difficulty]
HPDrainRate:4
CircleSize:4
OverallDifficulty:4
ApproachRate:6
SliderMultiplier:1.1
SliderTickRate:1

[Events]
//Background and Video events
0,0,"BG.jpg",0,0
//Break Periods
//Storyboard Layer 0 (Background)
//Storyboard Layer 1 (Fail)
//Storyboard Layer 2 (Pass)
//Storyboard Layer 3 (Foreground)
//Storyboard Sound Samples

[TimingPoints]
5082,307.692307692308,4,2,2,60,1,0
8774,-100,4,2,2,40,0,0
11082,-100,4,2,1,70,0,0
21082,-100,4,2,2,45,0,0
30928,-100,4,2,1,70,0,0
40312,-100,4,2,1,40,0,0
40774,-100,4,2,2,45,0,0
50466,-100,4,2,1,60,0,0
55543,-100,4,2,1,75,0,0
60466,-100,4,2,1,85,0,1
69851,-100,4,2,1,50,0,1
70312,-100,4,2,1,85,0,1
83851,-100,4,2,2,85,0,1
84928,-100,4,2,1,75,0,0

[Colours]
Combo1 : 204,198,29
Combo2 : 255,66,70
Combo3 : 148,171,92
Combo4 : 120,120,237

[HitObjects]
224,96,5082,6,0,L|340:105,1,110,2|0,0:0|0:0,0:0:0:0:
385,201,5697,1,0,0:0:0:0:
349,305,6005,2,0,L|277:273,1,55,0|2,0:0|0:0,0:0:0:0:
246,266,6312,2,0,L|45:311,2,165,2|2|0,0:0|0:0|0:0,0:0:0:0:
299,169,7543,6,0,B|290:113|262:65,1,110,2|0,0:0|0:0,0:0:0:0:
211,45,8005,2,0,L|82:74,1,110,0|0,0:0|0:0,0:0:0:0:
55,95,8466,1,0,0:0:0:0:
256,192,8774,12,2,10005,0:0:0:0:
360,74,11082,6,0,B|343:134|347:194,1,110,4|2,0:1|0:0,0:0:0:0:
354,237,11543,1,8,0:0:0:0:
272,310,11851,2,0,B|237:310|205:297,1,55,2|2,0:0|0:0,0:0:0:0:
163,294,12158,1,8,0:0:0:0:
85,215,12466,2,0,L|22:252,1,55,2|2,0:0|0:0,0:0:0:0:
3,199,12774,1,8,0:0:0:0:
73,114,13082,2,0,L|37:48,2,55,2|2|8,0:0|0:0|0:0,0:0:0:0:
127,124,13543,6,0,B|203:109|203:109|245:121,1,110,4|2,0:1|0:0,0:0:0:0:
285,138,14005,1,8,0:0:0:0:
357,220,14312,2,0,L|389:160,1,55,2|2,0:0|0:0,0:0:0:0:
424,134,14620,1,8,0:0:0:0:
474,231,14928,2,0,L|493:291,1,55,2|2,0:0|0:0,0:0:0:0:
510,334,15235,1,8,0:0:0:0:
400,319,15543,2,0,L|360:372,2,55,2|2|8,0:0|0:0|0:0,0:0:0:0:
377,268,16005,6,0,B|346:243|303:245|274:268,1,110,4|2,0:1|0:0,0:0:0:0:
228,296,16466,1,8,0:0:0:0:
127,340,16774,2,0,L|102:273,1,55,2|2,0:0|0:0,0:0:0:0:
86,237,17082,1,8,0:0:0:0:
2,165,17389,2,0,L|51:140,1,55,2|2,0:0|0:0,0:0:0:0:
101,117,17697,1,8,0:0:0:0:
200,70,18005,2,0,L|152:20,2,55,2|2|8,0:0|0:0|0:0,0:0:0:0:
251,167,18620,5,8,0:0:0:0:
313,76,18928,1,8,0:0:0:0:
354,177,19235,2,0,L|331:250,1,55,8|8,0:0|0:0,0:0:0:0:
335,339,19697,2,0,B|267:315|197:322,1,110,8|0,0:0|0:0,0:0:0:0:
172,327,20158,1,8,0:0:0:0:
69,366,20466,2,0,L|76:311,1,55,8|8,0:0|0:0,0:0:0:0:
59,146,21082,6,0,B|79:99|134:79|183:104|201:145,1,165,2|2,0:0|0:0,0:0:0:0:
276,59,21851,1,0,0:0:0:0:
317,160,22158,1,0,0:0:0:0:
317,160,22312,2,0,L|299:345,1,165,2|2,0:0|0:0,0:0:0:0:
135,328,23235,2,0,L|76:343,1,55,2|0,0:0|0:0,0:0:0:0:
27,330,23543,6,0,B|-16:291|-13:219|42:181|95:191,1,165,2|2,0:0|0:0,0:0:0:0:
157,228,24312,1,2,0:0:0:0:
217,135,24620,2,0,L|351:112,2,110,2|2|2,0:0|0:0|0:0,0:0:0:0:
162,143,25389,2,0,L|82:128,1,55,2|0,0:0|0:0,0:0:0:0:
73,89,25697,2,0,L|15:100,1,55,2|0,0:0|0:0,0:0:0:0:
0,152,26005,5,2,0:0:0:0:
73,233,26312,2,0,B|46:255|42:295|64:324|94:333,1,110,2|2,0:0|0:0,0:0:0:0:
184,289,26928,1,2,0:0:0:0:
184,289,27082,2,0,B|250:274|316:273,1,110,2|2,0:0|0:0,0:0:0:0:
402,284,27697,2,0,L|390:155,1,110,2|0,0:0|0:0,0:0:0:0:
437,143,28158,1,2,0:0:0:0:
480,108,28312,6,0,L|348:67,1,110,2|2,0:0|0:0,0:0:0:0:
267,51,28928,2,0,B|196:64|163:150|211:218|279:229|325:201,1,275,2|2,0:0|0:0,0:0:0:0:
49,101,30928,6,0,B|60:163|68:225,1,110,4|8,0:1|0:0,0:0:0:0:
53,318,31543,2,0,B|73:302|97:297|119:300,1,55,2|2,0:0|0:0,0:0:0:0:
159,298,31851,1,8,0:0:0:0:
159,298,32005,2,0,B|198:334|257:332|292:296,1,110,2|2,0:0|0:0,0:0:0:0:
313,298,32466,1,8,0:0:0:0:
417,261,32774,2,0,L|445:327,2,55,2|2|8,0:0|0:0|0:0,0:0:0:0:
372,160,33389,6,0,L|391:37,1,110,2|8,0:0|0:0,0:0:0:0:
278,44,34005,2,0,L|222:26,1,55,2|2,0:0|0:0,0:0:0:0:
172,43,34312,1,8,0:0:0:0:
67,76,34620,2,0,L|23:21,2,55,2|2|8,0:0|0:0|0:0,0:0:0:0:
110,177,35235,2,0,L|83:236,1,55,2|2,0:0|0:0,0:0:0:0:
61,275,35543,1,8,0:0:0:0:
155,331,35851,6,0,B|207:302|207:302|315:320,1,165,4|0,0:1|0:0,0:0:0:0:
365,327,36466,2,0,L|384:270,1,55,2|2,0:0|0:0,0:0:0:0:
401,222,36774,1,8,0:0:0:0:
381,113,37082,2,0,L|438:96,2,55,0|2|8,0:0|0:0|0:0,0:0:0:0:
279,71,37697,2,0,L|254:121,1,55,2|2,0:0|0:0,0:0:0:0:
230,170,38005,1,8,0:0:0:0:
142,235,38312,6,0,L|35:194,1,110,4|8,0:1|0:0,0:0:0:0:
60,87,38928,2,0,L|29:40,2,55,2|8|8,0:0|0:0|0:0,0:0:0:0:
102,122,39389,2,0,B|165:100|230:109,2,110,4|2|4,0:1|0:0|0:1,0:0:0:0:
37,211,40312,1,8,0:3:0:0:
170,307,40774,6,0,B|218:351|299:336|329:263|302:209,1,220,4|2,0:0|0:0,0:0:0:0:
359,123,41697,1,2,0:0:0:0:
249,129,42005,2,0,L|80:150,2,165,2|2|2,0:0|0:0|0:0,0:0:0:0:
359,123,43235,6,0,L|450:264,2,165,2|2|2,0:0|0:0|0:0,0:0:0:0:
299,215,44466,2,0,B|323:267|291:330|225:341|183:310,2,165,2|2|2,0:0|0:0|0:0,0:0:0:0:
237,123,45697,5,2,0:0:0:0:
153,195,46005,2,0,B|81:177|9:174,1,110,2|2,0:0|0:0,0:0:0:0:
82,280,46620,1,2,0:0:0:0:
192,277,46928,2,0,B|249:279|295:225|281:161|238:132,2,165,2|2|2,0:0|0:0|0:0,0:0:0:0:
153,174,48158,6,0,B|131:124|157:66|212:47|257:63,2,165,2|2|2,0:0|0:0|0:0,0:0:0:0:
192,277,49389,2,0,L|8:246,2,165,4|4|4,0:3|0:3|0:3,0:0:0:0:
292,322,50620,6,0,L|320:189,1,110,6|2,0:0|0:0,0:0:0:0:
390,135,51235,2,0,L|258:94,1,110,2|2,0:0|0:0,0:0:0:0:
198,33,51851,2,0,L|73:74,1,110,2|2,0:0|0:0,0:0:0:0:
117,174,52466,1,2,0:0:0:0:
117,174,52620,2,0,L|141:236,1,55,8|2,0:0|0:0,0:0:0:0:
133,280,52928,2,0,L|217:290,1,55,8|2,0:0|0:0,0:0:0:0:
275,353,53389,5,2,0:0:0:0:
326,255,53697,2,0,L|310:113,1,110,2|2,0:0|0:0,0:0:0:0:
213,99,54312,2,0,L|225:208,1,110,2|2,0:0|0:0,0:0:0:0:
145,284,54928,2,0,L|84:249,1,55,2|8,0:0|0:0,0:0:0:0:
55,221,55235,2,0,L|66:168,1,55,0|8,0:0|0:0,0:0:0:0:
82,114,55543,5,8,0:0:0:0:
173,174,55851,1,8,0:0:0:0:
259,105,56158,1,8,0:0:0:0:
327,191,56466,1,8,0:0:0:0:
240,259,56774,1,8,0:0:0:0:
173,174,57082,1,8,0:0:0:0:
259,105,57389,2,0,L|229:39,2,55,8|8|8,0:0|0:0|0:0,0:0:0:0:
283,154,57851,1,8,0:0:0:0:
310,201,58005,5,8,0:0:0:0:
256,192,58158,12,8,59082,0:0:0:0:
335,103,60466,6,0,L|352:228,1,110,4|8,0:1|0:0,0:0:0:0:
349,267,60928,1,0,0:0:0:0:
349,267,61082,2,0,B|284:255|219:251,1,110,2|8,0:0|0:0,0:0:0:0:
147,312,61697,1,2,0:0:0:0:
107,209,62005,1,8,0:0:0:0:
162,114,62312,2,0,L|115:37,2,55,2|0|8,0:0|0:0|0:0,0:0:0:0:
194,158,62774,1,8,0:0:0:0:
194,158,62928,6,0,L|321:130,1,110,4|8,0:1|0:0,0:0:0:0:
376,54,63543,1,2,0:0:0:0:
429,150,63851,1,8,0:0:0:0:
355,231,64158,1,2,0:0:0:0:
416,322,64466,2,0,L|483:284,2,55,8|0|2,0:0|0:0|0:0,0:0:0:0:
305,329,65082,1,8,0:0:0:0:
200,290,65389,5,4,0:1:0:0:
200,290,65543,2,0,L|139:276,2,55,0|8|0,0:0|0:0|0:0,0:0:0:0:
232,245,66005,2,0,L|226:107,1,110,2|8,0:0|0:0,0:0:0:0:
172,39,66620,1,2,0:0:0:0:
107,128,66928,1,8,0:0:0:0:
85,235,67235,2,0,L|25:206,2,55,4|8|8,0:3|0:0|0:0,0:0:0:0:
121,276,67697,6,0,L|263:256,1,110,4|0,0:1|0:0,0:0:0:0:
284,255,68158,1,8,0:0:0:0:
377,313,68466,1,8,0:0:0:0:
450,231,68774,2,0,L|432:166,1,55,8|8,0:0|0:0,0:0:0:0:
420,124,69082,1,8,0:0:0:0:
340,199,69389,1,8,0:0:0:0:
264,119,69697,2,0,L|287:62,2,55,8|8|8,0:0|0:3|0:3,0:0:0:0:
182,193,70312,6,0,L|44:164,1,110,4|8,0:1|0:0,0:0:0:0:
7,82,70928,1,2,0:0:0:0:
98,21,71235,1,8,0:0:0:0:
190,81,71543,1,2,0:0:0:0:
190,81,71697,2,0,L|233:15,2,55,0|8|0,0:0|0:0|0:0,0:0:0:0:
229,119,72158,2,0,B|239:183|238:247,1,110,2|8,0:0|0:0,0:0:0:0:
315,306,72774,6,0,B|354:304|390:291|419:271,1,110,4|8,0:1|0:0,0:0:0:0:
506,205,73389,1,2,0:0:0:0:
413,145,73697,1,8,0:0:0:0:
311,186,74005,2,0,B|306:147|312:109|327:75,1,110,4|8,0:1|0:0,0:0:0:0:
225,34,74620,2,0,L|115:43,1,110,2|8,0:0|0:0,0:0:0:0:
46,129,75235,5,4,0:1:0:0:
46,129,75389,2,0,L|4:79,2,55,0|8|0,0:0|0:0|0:0,0:0:0:0:
70,178,75851,2,0,B|48:216|45:260|57:298,1,110,2|8,0:0|0:0,0:0:0:0:
138,353,76466,1,2,0:0:0:0:
213,272,76774,2,0,L|273:297,1,55,8|0,0:0|0:0,0:0:0:0:
313,316,77082,2,0,L|302:388,2,55,2|8|8,0:0|0:0|0:0,0:0:0:0:
322,261,77543,6,0,B|322:222|338:187|363:162,1,110,4|0,0:1|0:0,0:0:0:0:
400,120,78005,1,8,0:0:0:0:
304,65,78312,1,8,0:0:0:0:
229,146,78620,2,0,L|195:104,1,55,8|8,0:0|0:0,0:0:0:0:
159,59,78928,1,8,0:0:0:0:
84,139,79235,1,8,0:0:0:0:
142,232,79543,2,0,L|67:272,2,55,8|8|8,0:0|0:0|0:0,0:0:0:0:
196,235,80005,6,0,B|233:221|271:225|303:241,1,110,4|0,0:1|0:0,0:0:0:0:
350,268,80466,1,8,0:0:0:0:
414,178,80774,1,2,0:0:0:0:
357,83,81082,2,0,L|404:40,2,55,8|0|2,0:0|0:0|0:0,0:0:0:0:
261,136,81697,2,0,L|136:122,1,110,8|2,0:0|0:0,0:0:0:0:
97,116,82158,1,2,0:0:0:0:
97,116,82312,2,0,L|116:196,1,55,8|8,0:0|0:0,0:0:0:0:
125,222,82620,6,0,B|95:256|82:298|82:339,1,110,4|8,0:1|0:0,0:0:0:0:
111,369,83082,2,0,L|186:344,1,55,8|8,0:0|0:0,0:0:0:0:
202,313,83389,2,0,L|271:336,1,55,8|8,0:0|0:0,0:0:0:0:
305,350,83697,1,8,0:0:0:0:
256,192,84928,12,4,87389,0:1:0:0:
163,166,88466,6,0,L|214:187,1,55,8|0,0:0|0:0,0:0:0:0:
265,206,88774,2,0,L|279:265,2,55,2|2|8,0:0|0:0|0:0,0:0:0:0:
351,137,89389,2,0,L|369:64,2,55,2|2|8,0:0|0:0|0:0,0:0:0:0:
375,186,89851,2,0,B|394:254|395:323,1,110,8|0,0:0|0:0,0:0:0:0:
378,347,90312,1,8,0:0:0:0:
276,303,90620,1,8,0:0:0:0:
175,348,90928,2,0,L|189:294,1,55,2|2,0:0|0:0,0:0:0:0:
178,240,91235,5,8,0:0:0:0:
70,216,91543,1,8,0:0:0:0:
45,323,91851,2,0,L|0:291,1,55,8|8,0:0|0:0,0:0:0:0:
